<?xml version="1.0" standalone="no"?>
<!DOCTYPE svg PUBLIC "-//W3C//DTD SVG 1.1//EN" "http://www.w3.org/Graphics/SVG/1.1/DTD/svg11.dtd" >
<svg xmlns="http://www.w3.org/2000/svg">
<metadata>Generated by IcoMoon</metadata>
<defs>
<font id="icomoon" horiz-adv-x="1024">
<font-face units-per-em="1024" ascent="960" descent="-64" />
<missing-glyph horiz-adv-x="1024" />
<glyph unicode="&#x20;" horiz-adv-x="512" d="" />
<glyph unicode="&#xe900;" glyph-name="pad" d="M410.232 653.844c63.068-23.092 138.794 25.452 169.16 108.418 30.348 82.968 3.83 168.924-59.228 192.002-63.082 23.060-138.8-25.47-169.164-108.436-30.35-82.968-3.832-168.924 59.232-191.984zM170.592 521.522c65.974 5.72 113.356 80.688 105.858 167.5-7.514 86.782-67.090 152.506-133.064 146.818-65.968-5.738-113.348-80.72-105.842-167.518 7.516-86.782 67.082-152.504 133.048-146.8zM684.392 524.464c57.904-34.034 141.104 0.146 185.852 76.308 44.748 76.212 34.082 165.516-23.83 199.548-57.902 34.002-141.12-0.194-185.86-76.356-44.744-76.198-34.064-165.5 23.838-199.5zM994.518 434.176c-37.542 54.542-126.14 58.758-197.908 9.388-71.784-49.402-99.524-133.644-61.992-188.202 37.532-54.54 126.138-58.76 197.908-9.372 71.76 49.386 99.516 133.628 61.992 188.186zM609.022 423.882c-7.16 49.546-37.532 94.732-86.078 117.648-48.536 22.9-102.73 17.614-145.516-8.338-47.292-28.7-77.544-66.192-118.276-82.58-40.726-16.386-154.8 32.418-225.824-96.556-50.162-91.096-4.114-206.256 89.924-250.63 71.476-33.728 128.046-29.962 169.576-49.548 41.524-19.586 74.58-65.66 146.050-99.384 94.036-44.376 212.2-6.724 250.63 89.914 54.412 136.814-55.794 193.844-69.044 235.7-13.238 41.85-3.524 89.040-11.442 143.774z" />
<glyph unicode="&#xe901;" glyph-name="pad2" d="M179.706 411.336c38.764 20.476 57.092 104.374 19.304 175.954-37.796 71.578-107.71 108.844-156.164 83.234-48.46-25.602-57.102-104.382-19.314-175.954 37.798-71.578 117.408-103.718 156.174-83.234zM981.158 670.524c-48.452 25.61-118.376-11.656-156.164-83.234-37.796-71.58-19.46-155.476 19.306-175.954 38.764-20.484 118.374 11.656 156.164 83.234 37.796 71.57 29.148 150.352-19.306 175.954zM638.98 584.75c19.828-3.672 43.594 4.226 65.516 20.624 0.086 0.070 0.18 0.132 0.274 0.196 2.764 2.086 5.484 4.32 8.18 6.672 0.382 0.328 0.766 0.648 1.148 0.984 2.57 2.298 5.086 4.712 7.562 7.244 0.398 0.406 0.796 0.804 1.196 1.22 2.54 2.632 5 5.39 7.414 8.266 0.228 0.272 0.452 0.538 0.68 0.812 18.68 22.532 33.328 51.924 38.46 85.852 6.908 45.648 6.452 87.71-9.078 119.188-0.046 0.084-0.084 0.18-0.124 0.266-1.492 3-3.164 5.876-4.938 8.672-0.39 0.61-0.75 1.25-1.156 1.852-1.588 2.374-3.33 4.64-5.14 6.852-0.664 0.804-1.306 1.634-1.992 2.406-1.804 2.062-3.766 4.016-5.79 5.914-0.748 0.696-1.484 1.398-2.266 2.070-2.218 1.946-4.578 3.782-7.046 5.54-0.57 0.406-1.14 0.796-1.726 1.188-12.054 8.172-26.852 14.314-45.25 17.72-29.336 5.428-52.282 1.304-70.446-9.634-0.836-0.5-1.686-0.976-2.508-1.516-1.914-1.25-3.764-2.594-5.57-4-0.97-0.75-1.924-1.54-2.86-2.344-1.764-1.5-3.484-3.054-5.14-4.702-0.712-0.72-1.398-1.484-2.094-2.228-22.75-24.328-35.086-63.008-41.812-107.444-12.684-83.826 37.020-162.88 84.506-171.67zM269.892 846.602c-0.406-0.61-0.772-1.258-1.172-1.884-1.764-2.788-3.428-5.648-4.922-8.64-0.046-0.102-0.084-0.204-0.132-0.298-15.524-31.476-15.976-73.524-9.070-119.164 5.132-33.938 19.782-63.336 38.468-85.868 0.22-0.26 0.438-0.524 0.656-0.782 2.422-2.89 4.9-5.656 7.446-8.304 0.382-0.398 0.764-0.78 1.148-1.164 2.5-2.546 5.030-4.992 7.624-7.296 0.352-0.314 0.712-0.61 1.070-0.922 2.718-2.376 5.468-4.634 8.266-6.734 0.046-0.040 0.102-0.070 0.156-0.118 21.938-16.436 45.742-24.358 65.594-20.678 47.476 8.788 97.188 87.844 84.508 171.664-6.726 44.444-19.078 83.14-41.836 107.46-0.688 0.734-1.368 1.492-2.070 2.204-1.656 1.656-3.39 3.218-5.156 4.726-0.93 0.796-1.876 1.57-2.836 2.312-1.804 1.422-3.664 2.772-5.586 4.024-0.82 0.532-1.658 1.008-2.492 1.5-18.164 10.938-41.116 15.078-70.452 9.642-18.398-3.398-33.196-9.548-45.252-17.72-0.586-0.39-1.156-0.788-1.726-1.188-2.468-1.756-4.836-3.594-7.054-5.532-0.772-0.68-1.516-1.382-2.266-2.078-2.022-1.898-3.976-3.852-5.78-5.906-0.688-0.78-1.336-1.618-2-2.422-1.806-2.21-3.548-4.468-5.134-6.834zM756.47 344.68c-27.64 7.296-49.296 28.124-60.016 54.624-27.084 66.97-99.428 114.9-184.452 114.9-85.022 0-157.374-47.93-184.46-114.9-10.718-26.5-32.374-47.328-60.008-54.624-80.86-21.328-139.812-87.58-139.812-166.048 0-95.71 87.71-173.296 195.906-173.296 50.96 0 97.358 17.212 132.188 45.428 32.688 26.476 79.688 26.476 112.374 0 34.828-28.21 81.228-45.428 132.18-45.428 108.196 0 195.914 77.586 195.914 173.296 0 78.468-58.962 144.72-139.814 166.048z" />
<glyph unicode="&#xe92a;" glyph-name="mail2, email, letter, envelope, contact" d="M896 800h-768c-70.688 0-128-57.344-128-128v-416c0-70.688 57.312-128 128-128h768c70.688 0 128 57.312 128 128v416c0 70.656-57.312 128-128 128zM64 632l223.968-168-223.968-168v336zM960 256c0-35.328-28.736-64-64-64h-768c-35.296 0-64 28.672-64 64l250.624 188 139.776-104.864c17.056-12.736 37.312-19.2 57.6-19.2 20.256 0 40.512 6.432 57.568 19.2l139.808 104.864 250.624-188zM960 296l-224 168 224 168v-336zM550.368 364.736c-11.168-8.384-24.416-12.8-38.368-12.8s-27.232 4.448-38.4 12.8l-409.6 307.264c0 35.296 28.704 64 64 64h768c35.264 0 64-28.704 64-64l-409.632-307.264z" />
<glyph unicode="&#xe92b;" glyph-name="global" d="M512 886.857c242.286 0 438.857-196.571 438.857-438.857s-196.571-438.857-438.857-438.857-438.857 196.571-438.857 438.857 196.571 438.857 438.857 438.857zM668.562 589.129c-4.571-3.438-7.424-9.728-13.129-10.862 2.853 0.585 5.705 10.862 7.424 13.129 3.438 3.986 8.009 6.29 12.581 8.558 9.728 3.986 19.419 5.157 29.696 6.839 9.728 2.304 21.723 2.304 29.147-6.29-1.719 1.719 11.995 13.714 13.714 14.299 5.157 2.853 13.714 1.719 17.152 6.839 1.134 1.719 1.134 12.581 1.134 12.581-9.728-1.134-13.129 8.009-13.714 16.018 0-0.585-1.134-2.304-3.438-4.571 0.585 8.558-10.277 2.304-14.299 3.438-13.129 3.438-11.447 12.581-15.433 22.272-2.304 5.157-8.558 6.839-10.862 11.995-2.304 3.438-3.438 10.862-8.558 11.447-3.438 0.585-9.728-11.995-10.862-11.447-5.157 2.853-7.424-1.134-11.447-3.438-3.438-2.304-6.29-1.134-9.728-2.853 10.277 3.438-4.571 9.143-9.728 8.009 8.009 2.304 3.986 10.862-0.585 14.848h2.853c-1.134 5.157-17.152 9.728-22.272 13.129s-32.585 9.143-38.29 5.705c-6.839-3.986 1.719-15.433 1.719-21.138 0.585-6.839-6.839-8.558-6.839-14.299 0-9.728 18.286-8.009 13.714-21.138-2.853-8.009-13.714-9.728-18.286-16.018-4.571-5.705 0.585-16.018 5.157-20.005 4.571-3.438-8.009-9.143-9.728-10.277-9.728-4.571-17.152 9.728-19.419 18.286-1.719 6.29-2.304 13.714-9.143 17.152-3.438 1.134-14.299 2.853-16.567-0.585-3.438 8.558-15.433 11.995-23.442 14.848-11.447 3.986-21.138 3.986-33.134 2.304 3.986 0.585-1.134 18.286-10.862 15.433 2.853 5.705 1.719 11.995 2.853 17.701 1.323 5.078 3.691 9.486 6.874 13.171l-0.035-0.041c1.134 2.304 13.714 15.433 9.728 16.018 9.728-1.134 20.553-1.719 28.562 6.29 5.157 5.157 7.424 13.714 12.581 19.419 7.424 8.558 16.567-2.304 24.576-2.853 11.447-0.585 10.862 11.995 4.571 17.701 7.424-0.585 1.134 13.129-2.853 14.848-5.157 1.719-24.576-3.438-14.299-7.424-2.304 1.134-16.018-27.429-23.991-13.129-2.304 2.853-3.438 14.848-8.558 15.433-4.571 0-7.424-5.157-9.143-8.558 2.853 7.424-16.018 12.581-20.005 13.129 8.558 5.705 1.719 11.995-4.571 15.433-4.571 2.853-18.871 5.157-22.857 0.585-10.862-13.129 11.447-14.848 17.152-18.286 1.719-1.134 8.558-5.157 4.571-8.009-3.438-1.719-13.714-4.571-14.848-6.839-3.438-5.157 3.986-10.862-1.134-16.018-5.157 5.157-5.157 13.714-9.143 19.419 5.157-6.29-20.553-2.853-20.005-2.853-8.558 0-22.272-5.705-28.562 2.853-1.134 2.304-1.134 15.433 2.304 12.581-5.157 3.986-8.558 8.009-11.995 10.277-20.89-7.146-38.635-15.066-55.524-24.349l1.8 0.907c0.798-0.242 1.714-0.381 2.663-0.381 1.52 0 2.956 0.357 4.231 0.991l-0.055-0.025c4.571 1.719 8.558 4.571 13.129 6.839 5.705 2.304 17.701 9.143 23.991 3.986 0.585 1.134 2.304 2.304 2.853 2.853 3.986-4.571 8.009-9.143 11.447-14.299-4.571 2.304-11.995 1.134-17.152 0.585-3.986-1.134-10.862-2.304-12.581-6.839 1.719-2.853 3.986-7.424 2.853-10.277-7.424 5.157-13.129 13.714-23.442 14.848-4.571 0-9.143 0-12.581-0.585-55.286-30.99-100.524-73.852-133.397-125.37l-0.893-1.496c1.814-2.044 4.116-3.616 6.726-4.537l0.113-0.035c5.705-1.719 0-18.286 10.862-9.728 3.438-2.853 3.986-6.839 1.719-10.862 0.585 0.585 23.442-14.299 25.161-15.433 3.986-3.438 10.277-7.424 11.995-11.995 1.134-3.986-2.304-8.558-5.705-10.277-0.585 1.134-9.143 9.728-10.277 7.424-1.719-2.853 0-18.286 6.29-17.701-9.143-0.585-5.157-35.986-7.424-42.862 0-0.585 1.134-0.585 1.134-0.585-1.719-6.839 3.986-33.719 15.433-30.866-7.424-1.719 13.129-28.014 16.018-29.696 7.424-5.157 16.018-8.558 21.138-16.018 5.705-8.009 5.705-20.005 13.714-26.295-2.304-6.839 11.995-14.848 11.447-24.576-1.134-0.585-1.719-0.585-2.853-1.134 2.853-8.009 13.714-8.009 17.701-15.433 2.304-4.571 0-15.433 7.424-13.129 1.134 12.581-7.424 25.161-13.714 35.438-3.438 5.705-6.839 10.862-9.728 16.567-2.853 5.157-3.438 11.447-5.705 17.152 2.304-0.585 14.848-5.157 13.714-6.839-4.571-11.447 18.286-31.415 24.576-38.839 1.719-1.719 14.848-18.871 8.009-18.871 7.424 0 17.701-11.447 21.138-17.152 5.157-8.558 3.986-19.419 7.424-28.562 3.438-11.447 19.419-16.567 28.562-21.723 8.009-3.986 14.848-9.728 22.857-12.581 11.995-4.571 14.848-0.585 25.161 1.134 14.848 2.304 16.567-14.299 28.562-20.553 7.424-3.986 23.442-9.728 31.415-6.29-3.438-1.134 11.995-24.576 13.129-26.295 5.157-6.839 14.848-10.277 20.553-17.152 1.909 1.156 3.33 2.956 3.97 5.093l0.016 0.063c-2.304-6.29 8.558-18.286 14.299-17.152 6.29 1.134 8.009 13.714 8.009 18.286-11.447-5.705-21.723-1.134-28.014 10.277-1.134 2.853-10.277 18.871-2.304 18.871 10.862 0 3.438 8.558 2.304 16.567s-9.143 13.129-13.129 20.005c-3.438-6.839-14.848-5.157-18.286 0.585 0-1.719-1.719-4.571-1.719-6.839-2.853 0-5.705-0.585-8.558 0.585 1.134 6.839 1.719 15.433 3.438 22.857 2.853 10.277 21.723 30.281-2.853 29.147-8.558-0.585-11.995-3.986-14.848-11.447-2.853-6.839-1.719-13.129-9.728-16.567-5.157-2.304-22.272-1.134-27.429 1.719-10.862 6.29-18.286 26.295-18.286 37.705-0.585 15.433 7.424 29.147 0 43.447 3.438 2.853 6.839 8.558 10.862 11.447 3.438 2.304 7.424-1.719 9.143 5.157-1.719 1.134-3.986 3.438-4.571 3.438 8.558-3.986 24.576 5.705 32 0 4.571-3.438 9.728-4.571 12.581 1.134 0.585 1.719-3.986 8.558-1.719 13.129 1.719-9.728 8.009-11.447 16.567-5.157 3.438-3.438 12.581-2.304 18.871-5.705 6.29-3.986 7.424-10.277 14.848-1.719 4.571-6.839 5.157-6.839 6.839-13.714 1.719-6.29 5.157-22.272 10.862-25.161 11.995-7.424 9.143 12.581 8.009 19.419-0.585 0.585-0.585 19.419-1.134 19.419-18.286 3.986-11.447 18.286-1.134 28.014 1.719 1.134 14.848 5.705 20.553 10.277 5.157 4.571 11.447 12.581 8.558 20.005 2.853 0 5.157 2.304 6.29 5.157-1.719 0.585-8.558 6.29-9.728 5.705 3.986 2.304 3.438 5.705 1.134 9.143 5.705 3.438 2.853 9.728 8.558 11.995 6.29-8.558 18.871 1.134 12.581 8.009 5.705 8.009 18.871 3.986 22.272 11.447 8.558-2.304 2.304 8.558 6.839 14.848 3.986 5.157 10.862 5.157 16.018 8.009 0-0.585 14.299 8.009 9.728 8.558 9.728-1.134 29.147 9.143 14.299 17.701 2.304 5.157-5.157 7.424-10.277 8.558 3.986 1.134 9.143-1.134 12.581 1.134 7.424 5.157 2.304 7.424-3.986 9.143-8.009 2.304-18.286-2.853-24.576-6.839zM575.415 87.991c79.632 14.37 148.489 52.996 200.401 107.829l0.156 0.167c-3.438 3.438-9.728 2.304-14.299 4.571-4.571 1.719-8.009 3.438-13.714 4.571 1.134 11.447-11.447 15.433-19.419 21.138-7.424 5.705-11.995 11.995-22.857 9.728-1.134-0.585-12.581-4.571-10.277-6.839-7.424 6.29-10.862 9.728-20.553 12.581-9.143 2.853-15.433 14.299-24.576 3.986-4.571-4.571-2.304-11.447-4.571-16.018-7.424 6.29 6.839 13.714 1.134 20.553-6.839 8.009-18.871-5.157-24.576-8.558-3.438-2.853-7.424-3.986-9.728-7.424-2.853-3.986-3.986-9.143-6.29-13.129-1.719 4.571-11.447 3.438-11.995 6.839 2.304-13.714 2.304-28.014 5.157-41.728 1.719-8.009 0-21.138-6.839-27.429s-15.433-13.129-16.567-22.857c-1.134-6.839 0.585-13.129 6.839-14.848 0.585-8.558-9.143-14.848-8.558-23.991 0-0.585 0.585-6.29 1.134-9.143z" />
<glyph unicode="&#xe92c;" glyph-name="home" d="M866.4 548.992v237.664h-138.592v-99.2l-109.984 109.856-105.632 106.048-512.192-511.808 75.872-75.808 436.32 435.968 435.968-435.968 75.84 75.808zM157.6 335.808v-343.168h270.4v230.88h168.032v-230.88h270.368v343.2l-354.208 354.24z" />
<glyph unicode="&#xe92d;" glyph-name="sphere" d="M480 896c-265.088 0-480-214.912-480-480s214.912-480 480-480c265.088 0 480 214.912 480 480s-214.912 480-480 480zM751.584 256c8.576 40.448 13.984 83.392 15.744 128h127.456c-3.328-44.192-13.632-87.104-30.688-128h-112.512zM208.416 576c-8.576-40.448-13.984-83.392-15.744-128h-127.456c3.328 44.192 13.632 87.104 30.688 128h112.512zM686.048 576c9.6-40.96 15.392-83.84 17.28-128h-191.328v128h174.048zM512 640v187.328c14.592-4.256 29.056-11.36 43.232-21.376 26.592-18.752 52-47.616 73.536-83.488 14.88-24.8 27.744-52.416 38.496-82.496h-155.264zM331.232 722.496c21.536 35.872 46.944 64.736 73.536 83.488 14.176 10.016 28.64 17.12 43.232 21.376v-187.328h-155.264c10.752 30.080 23.616 57.696 38.496 82.496zM448 576v-128h-191.328c1.888 44.16 7.68 87.040 17.28 128h174.048zM95.904 256c-17.056 40.896-27.328 83.808-30.688 128h127.456c1.76-44.608 7.168-87.552 15.744-128h-112.512zM256.672 384h191.328v-128h-174.048c-9.6 40.96-15.392 83.84-17.28 128zM448 192v-187.328c-14.592 4.256-29.056 11.36-43.232 21.376-26.592 18.752-52 47.616-73.536 83.488-14.88 24.8-27.744 52.416-38.496 82.496h155.264zM628.768 109.504c-21.536-35.872-46.944-64.736-73.536-83.488-14.176-9.984-28.64-17.12-43.232-21.376v187.328h155.264c-10.752-30.080-23.616-57.664-38.496-82.496zM512 256v128h191.328c-1.888-44.16-7.68-87.040-17.28-128h-174.048zM767.36 448c-1.76 44.608-7.168 87.552-15.744 128h112.512c17.056-40.896 27.36-83.808 30.688-128h-127.456zM830.656 640h-95.904c-18.624 58.752-44.384 110.304-75.328 151.424 42.528-20.352 81.056-47.616 114.72-81.28 21.472-21.472 40.352-44.928 56.512-70.144zM185.856 710.144c33.664 33.664 72.192 60.928 114.72 81.28-30.944-41.12-56.672-92.672-75.328-151.424h-95.904c16.128 25.216 35.008 48.672 56.512 70.144zM129.344 192h95.904c18.656-58.752 44.384-110.304 75.328-151.424-42.528 20.352-81.056 47.616-114.72 81.28-21.472 21.472-40.352 44.928-56.512 70.144zM774.144 121.856c-33.664-33.664-72.192-60.928-114.72-81.28 30.944 41.12 56.672 92.672 75.328 151.424h95.904c-16.128-25.216-35.008-48.672-56.512-70.144z" />
<glyph unicode="&#xe92e;" glyph-name="earth" d="M512 960c-282.784 0-512-229.216-512-512s229.216-512 512-512 512 229.216 512 512-229.216 512-512 512zM512 0c-62.944 0-122.88 13.024-177.216 36.448l233.152 262.304c5.216 5.856 8.096 13.408 8.096 21.248v96c0 17.664-14.336 32-32 32-112.992 0-232.192 117.472-233.376 118.624-6.016 6.016-14.144 9.376-22.624 9.376h-128c-17.664 0-32-14.336-32-32v-192c0-12.128 6.848-23.2 17.696-28.608l110.304-55.168v-187.872c-116.064 80.96-192 215.424-192 367.648 0 68.704 15.488 133.792 43.136 192h116.864c8.48 0 16.64 3.36 22.624 9.376l128 128c6.016 6.016 9.376 14.144 9.376 22.624v77.408c40.576 12.064 83.52 18.592 128 18.592 70.4 0 136.992-16.256 196.288-45.184-4.16-3.488-8.192-7.168-12.032-11.040-36.256-36.256-56.224-84.48-56.224-135.776s19.968-99.488 56.224-135.776c36.448-36.448 85.216-56.256 135.648-56.256 3.168 0 6.336 0.064 9.504 0.224 13.824-51.808 38.752-186.656-8.416-372.32-0.448-1.76-0.704-3.488-0.832-5.216-81.312-83.072-194.688-134.656-320.128-134.656z" />
<glyph unicode="&#xe92f;" glyph-name="info" d="M512 960c-282.752 0-512-229.248-512-512s229.248-512 512-512 512 229.248 512 512-229.248 512-512 512zM425.248 276.896c24.064 76.32 69.632 167.776 77.696 190.88 11.648 33.568-8.992 48.48-74.24-8.928l-14.496 27.296c74.4 80.928 227.616 99.232 175.488-26.144-32.544-78.304-55.84-131.168-69.152-171.936-19.424-59.424 29.6-35.328 77.6 8.992 6.528-10.656 8.672-14.112 15.2-26.4-106.592-101.472-224.896-110.432-188.064 6.24zM627.584 625.44c-22.688-19.328-56.32-18.912-75.136 0.928s-15.648 51.552 7.008 70.88c22.688 19.328 56.32 18.848 75.136-0.928 18.72-19.872 15.648-51.584-7.008-70.88z" />
<glyph unicode="&#xe930;" glyph-name="info11" d="M512 874.656c235.264 0 426.656-191.392 426.656-426.656s-191.392-426.656-426.656-426.656-426.656 191.392-426.656 426.656 191.392 426.656 426.656 426.656zM512 960c-282.752 0-512-229.248-512-512s229.248-512 512-512 512 229.248 512 512-229.248 512-512 512zM425.248 276.896c24.064 76.32 69.632 167.776 77.696 190.88 11.648 33.568-8.992 48.48-74.24-8.928l-14.496 27.296c74.4 80.928 227.616 99.232 175.488-26.144-32.544-78.304-55.84-131.168-69.152-171.936-19.424-59.424 29.6-35.328 77.6 8.992 6.528-10.656 8.672-14.112 15.2-26.4-106.592-101.472-224.896-110.432-188.064 6.24zM627.584 625.44c-22.688-19.328-56.32-18.912-75.136 0.928s-15.648 51.552 7.008 70.88c22.688 19.328 56.32 18.848 75.136-0.928 18.72-19.872 15.648-51.584-7.008-70.88z" />
<glyph unicode="&#xe931;" glyph-name="cog" d="M933.792 349.76c-53.728 93.056-21.408 212.288 72.16 266.496l-100.64 174.304c-28.736-16.864-62.176-26.528-97.856-26.528-107.552 0-194.72 87.744-194.72 196h-201.248c0.256-33.408-8.064-67.296-25.952-98.24-53.728-93.056-173.152-124.704-266.848-70.752l-100.608-174.304c28.96-16.48 54.048-40.576 71.872-71.488 53.632-92.896 21.504-211.936-71.712-266.208l100.64-174.304c28.64 16.704 61.92 26.24 97.408 26.24 107.2 0 194.144-87.2 194.688-194.944h201.248c-0.096 33.088 8.288 66.56 25.952 97.216 53.632 92.896 172.768 124.608 266.4 71.008l100.64 174.304c-28.768 16.48-53.696 40.512-71.424 71.232zM512 240.672c-114.496 0-207.328 92.832-207.328 207.328s92.832 207.328 207.328 207.328c114.496 0 207.328-92.832 207.328-207.328s-92.832-207.328-207.328-207.328z" />
<glyph unicode="&#xe932;" glyph-name="map" horiz-adv-x="640" d="M321.696 960.224c-177.728-0.32-321.696-144.448-321.696-322.208v0c0-130.176 128-376.928 235.52-560.928 40.096-68.256 69.12-113.824 69.12-113.824l17.056-27.168 17.504 27.168s29.024 45.472 68.704 113.824c107.52 184.032 235.936 430.944 235.936 560.928-0.224 177.824-144.288 321.952-322.112 322.208h-0.032zM372.48 97.888c-20.896-35.584-38.4-64.864-50.784-84.608-11.936 19.744-29.856 49.024-50.336 84.608-86.176 147.168-230.4 412.832-230.4 540.16 0 155.040 125.696 280.736 280.736 280.736s280.736-125.696 280.736-280.736v0c0-127.36-144.224-392.992-229.984-540.16zM321.696 839.552c-0.032 0-0.096 0-0.128 0-111.296 0-201.504-90.208-201.504-201.504s90.208-201.504 201.504-201.504c111.296 0 201.504 90.208 201.504 201.504v0c0 0.032 0 0.096 0 0.128 0 111.232-90.176 201.376-201.376 201.376v0zM321.696 477.664c-88.512 0.064-160.256 71.808-160.256 160.352s71.776 160.352 160.352 160.352c88.544 0 160.32-71.776 160.352-160.288v0c0-0.032 0-0.096 0-0.128 0-88.544-71.776-160.288-160.288-160.288-0.032 0-0.096 0-0.128 0v0z" />
<glyph unicode="&#xe933;" glyph-name="step" horiz-adv-x="640" d="M107.36 958.816c-37.664-4.448-65.76-25.952-83.168-65.472-14.24-32.32-21.184-73.888-24.032-143.296-2.272-55.904 23.008-178.432 51.040-247.328 6.432-15.808 14.56-31.712 21.248-41.856 5.6-8.448 15.072-18.816 17.152-18.816 0.672 0 20.768 5.024 44.608 11.2s57.76 14.656 75.232 18.912 32.224 7.776 32.8 7.936 0.928 6.432 0.992 22.336c-0.288 44.8 2.496 74.144 10.656 97.856 8.576 27.616 14.432 60.576 16.032 84.32 3.584 54.496-9.088 140.544-37.536 195.104-24.832 47.456-59.904 76.192-94.816 79.712-10.048 0.992-21.952 0.224-30.24-0.704zM509.056 684.64c-35.008-2.496-76.416-29.696-102.624-76.416-30.016-53.728-45.184-139.392-43.136-193.952 0.896-23.808 5.856-56.864 13.6-84.736 7.488-23.904 9.376-53.344 7.84-98.112-0.352-15.904-0.288-22.080 0.352-22.368s15.2-4.192 32.576-8.896 51.008-14.336 74.656-21.088 43.616-12.48 44.288-12.48c2.080-0.064 11.84 10.048 17.696 18.336 6.976 9.92 15.552 25.6 22.464 41.216 29.984 68.064 58.784 189.792 58.112 245.76-0.832 69.472-6.592 111.2-19.904 143.936-16.256 39.968-43.040 62.24-80.576 67.744-5.184 0.864-11.168 1.376-17.28 1.376-2.848 0-5.632-0.096-8.416-0.32l0.384 0.032zM245.44 431.552c-15.808-5.44-35.744-11.712-74.496-23.36-18.816-5.696-42.016-12.8-51.456-15.744l-17.152-5.344 0.256-4.928c0.416-7.36 2.496-23.52 4.768-36.992 10.048-57.76 32.896-102.944 64.352-126.72 7.872-5.952 20.672-12.288 30.208-15.072s28.032-2.752 37.504 0c27.2 7.776 47.968 29.28 57.824 59.84 14.656 45.184 1.92 104.864-34.656 163.616-3.008 4.672-5.6 8.544-5.856 8.448s-5.28-1.76-11.296-3.776zM369.44 164.928c-23.168-34.592-37.376-67.776-43.424-101.152-2.112-12-2.816-33.984-1.376-44.768 4.704-34.144 20.704-60.384 45.024-73.888 3.872-2.144 8.48-4.224 13.28-5.952l0.704-0.224c6.56-2.208 8.896-2.496 19.168-2.88 12.064-0.352 16.672 0.288 27.136 3.744 20.224 6.784 40.896 24.096 55.776 46.624 20.736 31.392 34.304 73.376 41.024 126.848l0.64 5.024-14.272 4.832c-7.872 2.656-27.936 9.408-44.608 14.912-46.56 15.52-61.312 20.544-78.496 26.848-8.704 3.264-16 5.92-16.256 5.92-1.472-1.76-2.912-3.68-4.192-5.696l-0.128-0.224z" />
<glyph unicode="&#xe934;" glyph-name="track" d="M998.592 795.648h-569.536c-14.048 0-25.408-12.064-25.408-26.912v-401.344c0-14.848 11.36-26.88 25.408-26.88h569.536c14.048 0 25.408 12 25.408 26.88v401.344c0 14.848-11.36 26.912-25.408 26.912zM205.568 251.264c-39.424 0-71.392-33.76-71.392-75.456s31.968-75.456 71.392-75.456c39.392 0 71.328 33.792 71.328 75.456s-31.936 75.456-71.328 75.456zM1002.816 308.896h-607.904c-11.68 0-21.184 10.048-21.184 22.432v334.624c0 12.384-9.472 22.4-21.184 22.4h-193.088c-6.304 0-12.256-2.976-16.256-8.064l-138.272-175.456c-3.168-4-4.896-9.088-4.896-14.336v-234.4c0-12.352 9.472-22.4 21.184-22.4h106.528c17.248 25.856 45.696 42.848 77.856 42.848s60.544-16.96 77.824-42.848h434.816c17.248 25.856 45.664 42.848 77.824 42.848s60.544-16.96 77.824-42.848h128.96c11.68 0 21.184 10.048 21.184 22.4v30.336c0 12.384-9.504 22.432-21.184 22.432zM77.408 472.704v15.52c0 5.312 1.728 10.432 4.864 14.592l88.256 114.912c4.16 5.408 10.4 8.544 16.96 8.544h86.464c12.096 0 21.856-10.336 21.856-23.072v-130.464c0-12.768-9.792-23.104-21.856-23.104h-174.72c-12.064 0-21.824 10.336-21.824 23.104zM796.032 251.264c-39.424 0-71.36-33.76-71.36-75.456s31.936-75.456 71.36-75.456c39.392 0 71.36 33.792 71.36 75.456s-31.968 75.456-71.36 75.456z" />
<glyph unicode="&#xe935;" glyph-name="train" d="M423.936 849.568v0.32h-110.784c-40.416 0-73.184-32.8-73.184-73.248v-213.792c0-11.392 9.248-20.64 20.64-20.64h163.328v307.36zM388.384 614.944v-0.064h-112.864v123.68h112.864v-123.648zM716.384 960h-408.736c-92.032 0-166.976-74.944-166.976-166.976v-541.408h29.536v-54.016l122.176-86.336h439.2l122.176 86.336v54.016h29.536v541.408c0 92.032-74.944 166.976-166.976 166.976zM838.4 375.264v-0.96h-652.8v418.752c0 67.392 54.624 122.016 122.048 122.016h408.736c67.392 0 122.048-54.624 122.048-122.016v-417.792zM218.208 267.040h212.992v53.696h161.44v-53.696h211.456v-35.552h-585.856v35.552zM710.816 849.824h-239.136v-307.616h291.616c11.552 0 20.608 9.248 20.608 20.608v213.92c0 40.32-32.64 73.088-73.088 73.088zM245.728 485.632v-82.464h166.624v82.464h-166.624zM334.592 425.504v41.216h45.568v-41.216h-45.568zM611.616 485.632v-82.464h166.624v82.464h-166.624zM643.808 425.504v41.216h45.568v-41.216h-45.568zM739.296 90.528l-17.344 0.096 0.032-0.096h-0.352l11.936-32.64 3.936-11.072-451.168 0.096 11.744 32.128 4.192 11.136h-0.128l0.128 0.32h-68.448l-41.888-114.72-14.528-39.456h0.128l-0.128-0.32h68.384l28.256 77.28h475.872l28.256-77.28h68.448l-56.48 154.528z" />
<glyph unicode="&#xe936;" glyph-name="clock" d="M512 960c-282.784 0-512-229.248-512-512s229.216-512 512-512 512 229.216 512 512c0 282.752-229.216 512-512 512zM825.088 174.528l-32.32 32.32c-11.52-14.784-24.8-28.096-39.616-39.616l32.352-32.32c-66.592-58.24-151.808-95.616-245.472-101.888v45.376c-9.184-1.152-18.496-1.952-28-1.952s-18.816 0.8-28 1.952v-45.376c-93.664 6.272-178.88 43.648-245.472 101.888l32.32 32.32c-14.816 11.52-28.096 24.8-39.616 39.616l-32.32-32.32c-58.24 66.592-95.616 151.808-101.888 245.472h45.376c-1.152 9.184-1.952 18.496-1.952 28s0.8 18.816 1.952 28h-45.376c6.272 93.632 43.648 178.88 101.888 245.472l32.32-32.32c11.52 14.784 24.8 28.096 39.616 39.616l-32.32 32.32c66.592 58.24 151.808 95.616 245.472 101.888v-45.376c9.184 1.152 18.496 1.952 28 1.952s18.816-0.8 28-1.952v45.376c93.664-6.272 178.88-43.648 245.472-101.888l-32.32-32.32c14.816-11.52 28.096-24.8 39.616-39.616l32.32 32.32c58.24-66.592 95.616-151.808 101.888-245.472h-45.376c1.152-9.184 1.952-18.496 1.952-28s-0.8-18.816-1.952-28h45.376c-6.272-93.664-43.648-178.88-101.888-245.472zM421.504 510.88l-205.92 94.080c-12 5.6-26.24 0.32-31.68-11.84-5.6-12-0.32-26.24 11.84-31.68l207.68-94.88c2.56 16.32 8.8 31.36 18.080 44.32zM761.344 591.52l-169.12-68c18.4-19.36 29.76-45.44 30.080-74.24l168.96 68c20.48 8.32 30.4 31.52 22.24 52-8.32 20.48-31.68 30.56-52.16 22.24zM362.624 119.36c-3.040-8.32 1.12-17.44 9.44-20.64 1.92-0.64 3.68-0.96 5.6-0.96 6.56 0 12.64 4 15.040 10.4l87.040 234.4c-10.56 3.2-20.32 7.84-29.12 13.92l-88-237.12zM588.288 448c0-42.144-34.144-76.288-76.288-76.288s-76.288 34.144-76.288 76.288c0 42.144 34.144 76.288 76.288 76.288s76.288-34.144 76.288-76.288z" />
<glyph unicode="&#xe937;" glyph-name="calendar" d="M329.792 780.416c27.744 0 50.24 22.496 50.24 50.272v79.072c0 27.744-22.496 50.24-50.24 50.24s-50.272-22.496-50.272-50.24v-79.072c0-27.776 22.528-50.272 50.272-50.272zM700.384 780.416c27.744 0 50.24 22.496 50.24 50.272v79.072c0 27.744-22.528 50.24-50.24 50.24s-50.272-22.496-50.272-50.24v-79.072c0-27.776 22.528-50.272 50.272-50.272zM874.496 888.384h-79.744v-57.696c0-52.064-42.336-94.432-94.4-94.432s-94.432 42.368-94.432 94.432v57.696h-181.76v-57.696c0-52.064-42.368-94.432-94.4-94.432s-94.432 42.368-94.432 94.432v57.696h-85.856c-77.952 0-141.152-63.2-141.152-141.152v-670.080c0-77.952 63.2-141.152 141.152-141.152h724.992c77.952 0 141.152 63.2 141.152 141.152v670.080c0 77.952-63.2 141.152-141.152 141.152zM946.976 77.152c0-39.968-32.512-72.48-72.48-72.48h-724.992c-39.968 0-72.48 32.512-72.48 72.48v580.896h869.952v-580.896zM349.856 194.976h127.168v-127.168h-127.168v127.168zM349.856 392.096h127.168v-127.168h-127.168v127.168zM152.768 194.976h127.168v-127.168h-127.168v127.168zM152.768 392.096h127.168v-127.168h-127.168v127.168zM744.064 589.152h127.168v-127.168h-127.168v127.168zM546.976 589.152h127.168v-127.168h-127.168v127.168zM700.096 373.568l-37.824 29.408-68.896-88.608-40.896 32.704-29.92-37.376 78.816-63.072zM744.064 392.096h127.168v-127.168h-127.168v127.168zM546.976 194.976h127.168v-127.168h-127.168v127.168zM349.856 589.152h127.168v-127.168h-127.168v127.168z" />
<glyph unicode="&#xe938;" glyph-name="cart" d="M423.52 126.496c-37.792 0-68.416-30.624-68.416-68.448 0-37.792 30.624-68.384 68.416-68.384s68.448 30.592 68.448 68.384c0 37.824-30.656 68.448-68.448 68.448zM805.92 126.496c-37.792 0-68.416-30.624-68.416-68.448 0-37.792 30.624-68.384 68.416-68.384s68.416 30.592 68.416 68.384c0 37.824-30.656 68.448-68.416 68.448zM302.816 701.888l-38.72 153.216-262.784 51.232-1.312-6.688v-100.448l178.272-34.752 147.84-585.024h577.472l120.416 489.632z" />
<glyph unicode="&#xe939;" glyph-name="user" horiz-adv-x="864" d="M686.304 512c80.576-23.456 191.424-102.848 191.424-362.848 0-117.728-87.456-213.152-194.848-213.152h-488c-107.456 0-194.848 95.424-194.848 213.152 0 260 110.848 339.424 191.424 362.848-28.576 45.12-45.12 98.304-45.12 155.424 0 161.12 131.424 292.576 292.576 292.576s292.576-131.424 292.576-292.576c0-57.152-16.576-110.304-45.12-155.424zM438.848 886.848c-121.152 0-219.424-98.304-219.424-219.424s98.304-219.424 219.424-219.424 219.424 98.304 219.424 219.424-98.304 219.424-219.424 219.424zM682.848 9.152c66.848 0 121.696 62.272 121.696 140 0 180-60.576 292.576-173.728 298.272-51.424-45.12-118.272-72.544-192-72.544s-140.576 27.424-192 72.544c-113.152-5.696-173.728-118.272-173.728-298.272 0-77.728 54.848-140 121.696-140h488z" />
<glyph unicode="&#xe93a;" glyph-name="enter" d="M384 448h-320v128h320v128l192-192-192-192zM1024 960v-832l-384-192v192h-384v256h64v-192h320v576l256 128h-576v-256h-64v320z" />
<glyph unicode="&#xe93b;" glyph-name="exit" d="M768 320v128h-320v128h320v128l192-192zM704 384v-256h-320v-192l-384 192v832h704v-320h-64v256h-512l256-128v-576h256v192z" />
<glyph unicode="&#xe93c;" glyph-name="dl" d="M487.168 341.28c6.528-8.64 15.36-13.376 24.832-13.376s18.272 4.736 24.832 13.376l179.2 236.192c6.688 8.832 8.544 17.376 5.216 24.096s-11.264 10.4-22.336 10.4h-68.608c-18.592 0-33.696 15.104-33.696 33.696v194.816c0 22.080-17.952 40.064-40.064 40.064h-89.088c-22.080 0-40.032-17.984-40.032-40.064v-194.816c0-18.56-15.104-33.696-33.696-33.696h-68.608c-11.072 0-19.008-3.712-22.336-10.4s-1.472-15.264 5.216-24.096l179.2-236.16zM890.432 371.68v-222.624h-756.864v222.592h-133.568v-305.312c0-28.064 22.816-50.88 50.88-50.88h922.24c28.064 0 50.88 22.816 50.88 50.88v305.312h-133.568z" />
<glyph unicode="&#xe93d;" glyph-name="note" d="M825.76 841.888c-108.448 0-223.072-48.128-288.096-124.096v-663.648c65.024 76 179.648 124.128 288.096 124.128 108.384 0 198.24 0 198.24 0v663.616c0 0-89.888 0-198.24 0zM198.24 841.888c-108.384 0-198.24 0-198.24 0v-663.616c0 0 89.888 0 198.24 0 108.448 0 223.072-48.128 288.096-124.128v663.648c-65.024 75.968-179.648 124.096-288.096 124.096z" />
<glyph unicode="&#xe93e;" glyph-name="document" d="M938.656-64h-853.344v1024h597.344l256-256v-768zM640 917.344h-512v-938.656h768v682.656h-256v256zM768 277.344v-42.656h-512v42.656h512zM768 405.344v-42.656h-512v42.656h512zM768 533.344v-42.656h-512v42.656h512zM682.656 704h195.68l-195.68 195.68v-195.68z" />
<glyph unicode="&#xe93f;" glyph-name="file-excel" d="M743.040 576h-135.296l-95.744-141.024-95.744 141.024h-135.296l162.176-242.464-182.976-269.536h251.84v91.584h-50.144l50.144 75.008 111.392-166.56h140.448l-182.976 269.536 162.176 242.464zM917.792 730.912c-22.208 30.304-53.184 65.696-87.168 99.712s-69.408 64.96-99.712 87.168c-51.584 37.824-76.576 42.208-90.912 42.208h-496c-44.096 0-80-35.872-80-80v-864c0-44.096 35.872-80 80-80h736c44.096 0 80 35.904 80 80v624c0 14.336-4.384 39.36-42.208 90.912v0zM785.376 785.376c30.688-30.688 54.784-58.4 72.576-81.376h-153.952v153.952c22.976-17.792 50.688-41.888 81.376-72.576v0zM896 16c0-8.672-7.328-16-16-16h-736c-8.672 0-16 7.328-16 16v864c0 8.672 7.328 16 16 16 0 0 495.968 0 496 0v-224c0-17.664 14.336-32 32-32h224v-624z" />
<glyph unicode="&#xe940;" glyph-name="file-word" d="M639.776 484.096h44.224l-51.008-226.176-66.336 318.016h-106.56l-77.12-318.016-57.824 318.016h-111.392l113.088-511.872h108.832l76.288 302.72 68.256-302.72h100.352l129.632 511.872h-170.432v-91.84zM917.792 730.912c-22.208 30.304-53.184 65.696-87.168 99.712s-69.408 64.96-99.712 87.168c-51.584 37.824-76.576 42.208-90.912 42.208h-496c-44.096 0-80-35.872-80-80v-864c0-44.096 35.872-80 80-80h736c44.096 0 80 35.904 80 80v624c0 14.336-4.384 39.36-42.208 90.912v0zM785.376 785.376c30.688-30.688 54.784-58.4 72.576-81.376h-153.952v153.952c22.976-17.792 50.688-41.888 81.376-72.576v0zM896 16c0-8.672-7.328-16-16-16h-736c-8.672 0-16 7.328-16 16v864c0 8.672 7.328 16 16 16 0 0 495.968 0 496 0v-224c0-17.664 14.336-32 32-32h224v-624z" />
<glyph unicode="&#xe941;" glyph-name="pdf" d="M756.832 960h-366.592l-294.816-294.816v-557.376c0-94.72 77.056-171.776 171.808-171.776h489.632c94.72 0 171.776 77.056 171.776 171.776v680.416c0 94.752-77.056 171.808-171.776 171.808zM864.992 107.776c0-59.744-48.416-108.192-108.16-108.192h-489.632c-59.776 0-108.192 48.416-108.192 108.192v531.040h167.424c49.76 0 90.144 40.352 90.144 90.144v167.424h340.224c59.744 0 108.16-48.416 108.16-108.192v-680.416zM343.904 454.432h-57.056c-10.848 0-17.376-7.072-17.376-17.664v-147.52c0-12.768 8.416-21.184 20.096-21.184 11.424 0 19.84 8.416 19.84 21.184v44.8c0 1.088 0.544 1.632 1.664 1.632h32.864c40.192 0 64.384 24.448 64.384 59.232 0 35.328-23.904 59.488-64.384 59.488zM341.44 370.24h-30.4c-1.088 0-1.664 0.544-1.664 1.632v46.464c0 1.088 0.544 1.632 1.664 1.632h30.4c16.832 0 26.88-10.048 26.88-24.992s-10.048-24.704-26.88-24.704zM500.384 454.432h-43.744c-10.848 0-17.376-7.072-17.376-17.664v-149.696c0-10.592 6.496-17.376 17.376-17.376h43.744c39.392 0 63.84 12.512 73.632 42.656 3.52 10.592 5.44 23.36 5.44 49.728s-1.92 39.104-5.44 49.696c-9.76 30.144-34.24 42.656-73.632 42.656zM535.712 326.208c-4.64-14.656-17.92-20.928-36.416-20.928h-18.464c-1.088 0-1.664 0.544-1.664 1.632v110.304c0 1.088 0.544 1.632 1.664 1.632h18.464c18.496 0 31.776-6.24 36.416-20.928 1.888-6.24 3.232-17.12 3.232-35.872s-1.344-29.6-3.232-35.872zM722.336 454.432h-89.632c-10.88 0-17.408-7.072-17.408-17.664v-147.52c0-12.768 8.448-21.184 20.096-21.184 11.392 0 19.84 8.416 19.84 21.184v52.704c0 1.088 0.544 1.632 1.632 1.632h52.16c11.68 0 18.464 7.072 18.464 17.12s-6.784 17.12-18.464 17.12h-52.16c-1.088 0-1.632 0.544-1.632 1.632v38.848c0 1.088 0.544 1.632 1.632 1.632h65.472c11.136 0 18.496 7.328 18.496 17.12 0 10.048-7.36 17.376-18.496 17.376z" />
<glyph unicode="&#xe942;" glyph-name="phone" d="M704 320c-64-64-64-128-128-128s-128 64-192 128-128 128-128 192 64 64 128 128-128 256-192 256-192-192-192-192c0-128 131.5-387.5 256-512s384-256 512-256c0 0 192 128 192 192s-192 256-256 192z" />
<glyph unicode="&#xe943;" glyph-name="zip" d="M469.344 746.656c-69.504 0-98.336 45.152-170.656 128h-298.656v-853.344h1024v725.344h-554.656zM469.344 661.344h128v-42.656h-128v42.656zM469.344 576h128v-42.656h-128v42.656zM469.344 490.656h128v-42.656h-128v42.656zM533.344 152.096c-69.28 0-120.224 39.328-103.456 106.656l39.456 146.56h128l39.456-146.56c16.736-67.232-34.080-106.656-103.456-106.656zM597.216 234.912c0-54.496-127.84-54.112-127.84-0.128 0 56.032 127.84 57.344 127.84 0.128z" />
<glyph unicode="&#xe944;" glyph-name="window" d="M0 704h85.344v-768h-85.344v768zM0 21.344h768v-85.344h-768v85.344zM170.656 192h853.344v-85.344h-853.344v85.344zM170.656 960h85.344v-853.344h-85.344v853.344zM938.656 960h85.344v-853.344h-85.344v853.344zM170.656 960h853.344v-85.344h-853.344v85.344z" />
<glyph unicode="&#xe945;" glyph-name="free" d="M0 783.936v-104.768c80.608-0.128 155.552-15.616 220.256-41.184 12.128-4.8 23.872-9.92 35.264-15.392 25.92 12.448 53.792 23.2 83.36 31.936 53.024 15.648 111.424 24.64 173.088 24.64 80.96 0 156.224-15.52 221.216-41.184 12.128-4.8 23.904-9.92 35.264-15.392 25.92 12.448 53.792 23.2 83.36 31.936 52.768 15.552 110.816 24.544 172.16 24.64v104.768h-1024zM641.184 386.688c0-26.464 8-50.752 21.728-71.136 13.728-20.32 33.248-36.512 56.032-46.144 15.232-6.432 31.872-9.984 49.536-10.016 26.496 0.032 50.784 8 71.136 21.728s36.512 33.216 46.144 56.032c6.432 15.2 9.984 31.872 9.984 49.536 0 12.608-2.624 26.016-8.192 40.032s-13.984 28.64-25.312 43.168c-21.6 27.776-53.696 55.136-93.792 78.176-30.752-17.696-56.832-37.856-77.024-58.88-21.504-22.304-36.256-45.504-43.84-67.104-4.352-12.384-6.432-24.16-6.432-35.392zM893.056 534.944c26.688-27.808 46.976-58.336 58.496-90.912 6.56-18.592 10.176-37.888 10.176-57.344 0.032-39.904-12.192-77.248-33.024-108.064-20.832-30.848-50.272-55.296-85.024-70.016-23.136-9.792-48.64-15.2-75.264-15.2-39.904 0-77.28 12.192-108.096 33.056s-55.296 50.272-69.984 84.992c-9.792 23.136-15.232 48.64-15.2 75.232 0 29.216 8.16 57.92 22.176 84.736 14.016 26.88 33.888 52.096 58.368 75.232 12.736 12 26.72 23.424 41.856 34.24-10.112 3.712-20.48 7.168-31.136 10.336-47.040 13.856-99.2 21.92-154.432 21.92-67.744 0.032-130.912-12.16-185.6-32.256 19.968-14.272 37.984-29.696 53.728-45.984 26.688-27.808 46.976-58.336 58.496-90.912 6.56-18.592 10.208-37.888 10.208-57.344 0-39.904-12.192-77.248-33.024-108.064-20.832-30.848-50.272-55.296-84.992-70.016-23.136-9.792-48.64-15.2-75.232-15.2-39.936 0-77.28 12.192-108.096 33.056s-55.296 50.272-69.984 84.992c-9.792 23.136-15.2 48.64-15.2 75.232 0 29.216 8.16 57.92 22.144 84.736 14.048 26.88 33.92 52.096 58.4 75.232 12.704 12 26.72 23.424 41.856 34.24-10.112 3.712-20.48 7.168-31.136 10.336-46.752 13.76-98.592 21.856-153.504 21.92v-501.12h1024v501.12c-67.392-0.096-130.208-12.256-184.672-32.256 19.968-14.272 37.984-29.696 53.728-45.984zM128.224 386.688c0-26.464 8-50.752 21.728-71.136 13.728-20.32 33.248-36.512 56.032-46.144 15.2-6.432 31.872-9.984 49.536-10.016 26.464 0.032 50.784 8 71.136 21.728s36.512 33.216 46.144 56.032c6.432 15.2 9.984 31.872 9.984 49.536 0 12.608-2.656 26.016-8.192 40.032s-13.984 28.64-25.312 43.168c-21.6 27.776-53.696 55.136-93.792 78.176-30.752-17.696-56.832-37.856-76.992-58.88-21.504-22.304-36.256-45.504-43.84-67.104-4.352-12.384-6.432-24.16-6.432-35.392z" />
<glyph unicode="&#xe946;" glyph-name="tel" d="M189.632 916.608c-70.368-45.632-84.192-188.256-57.632-304.512 20.672-90.528 64.672-211.968 138.848-326.336 69.76-107.584 167.104-204.032 241.344-259.84 95.328-71.648 231.2-117.216 301.536-71.584 35.584 23.072 88.448 86.112 90.848 97.44 0 0-31.008 47.808-37.792 58.272l-103.936 160.256c-7.712 11.904-56.16 1.024-80.768-12.928-33.184-18.816-63.776-69.28-63.776-69.28-22.752-13.152-41.824-0.064-81.664 18.272-48.96 22.528-104 92.512-147.808 155.904-40 65.856-81.472 144.64-82.080 198.528-0.48 43.84-4.672 66.592 16.608 82.016 0 0 58.528 7.328 89.248 29.984 22.752 16.768 52.448 56.576 44.736 68.48l-103.936 160.256c-6.816 10.496-37.792 58.272-37.792 58.272-11.328 2.4-90.432-20.128-126.016-43.232z" />
<glyph unicode="&#xe947;" glyph-name="mobile" d="M736 960h-448c-52.8 0-96-43.2-96-96v-832c0-52.8 43.2-96 96-96h448c52.8 0 96 43.2 96 96v832c0 52.8-43.2 96-96 96zM384 912h256v-32h-256v32zM512 0c-35.36 0-64 28.64-64 64s28.64 64 64 64 64-28.64 64-64-28.64-64-64-64zM768 192h-512v640h512v-640z" />
<glyph unicode="&#xe948;" glyph-name="mail" d="M1024 64h-1024v768h1024v-768zM42.656 767.008v-660.352h938.656v660.352l-469.28-426.656-469.376 426.656zM942.464 789.344h-860.832l430.432-391.296 430.432 391.296z" />
<glyph unicode="&#xe949;" glyph-name="mail11" d="M928 832h-832c-53.024 0-96-42.976-96-96v-576c0-52.992 42.976-96 96-96h832c53.024 0 96 43.008 96 96v576c0 53.024-42.976 96-96 96zM87.712 128.32l-23.392 23.424 263.968 263.936 23.392-23.424-263.968-263.936zM936.288 128.32l-263.968 263.936 23.392 23.424 263.968-263.936-23.392-23.424zM544 341.6v-21.6h-64v21.6l-415.904 385.6 40.704 40.704 407.2-377.536 407.2 377.536 40.704-40.704-415.904-385.6z" />
<glyph unicode="&#xe94a;" glyph-name="bars" horiz-adv-x="864" d="M877.728 192v-73.152c0-20-16.576-36.576-36.576-36.576h-804.576c-20 0-36.576 16.576-36.576 36.576v73.152c0 20 16.576 36.576 36.576 36.576h804.576c20 0 36.576-16.576 36.576-36.576zM877.728 484.576v-73.152c0-20-16.576-36.576-36.576-36.576h-804.576c-20 0-36.576 16.576-36.576 36.576v73.152c0 20 16.576 36.576 36.576 36.576h804.576c20 0 36.576-16.576 36.576-36.576zM877.728 777.152v-73.152c0-20-16.576-36.576-36.576-36.576h-804.576c-20 0-36.576 16.576-36.576 36.576v73.152c0 20 16.576 36.576 36.576 36.576h804.576c20 0 36.576-16.576 36.576-36.576z" />
<glyph unicode="&#xe94b;" glyph-name="checkmark" d="M864 832l-480-480-224 224-160-160 384-384 640 640z" />
<glyph unicode="&#xe94c;" glyph-name="arrow" horiz-adv-x="1440" d="M853.344 874.656l170.656 85.344 426.656-512-426.656-512-170.656 85.344 426.656 426.656zM0 533.344h1365.344v-170.656h-1365.344v170.656z" />
<glyph unicode="&#xe94d;" glyph-name="arrow02" horiz-adv-x="3680" d="M0 140.8v-204.8h3686.4l-1024 1024h-409.6l819.2-819.2h-3072z" />
<glyph unicode="&#xe94e;" glyph-name="facebook2" d="M928 960h-832c-52.8 0-96-43.2-96-96v-832c0-52.8 43.2-96 96-96h416v448h-128v128h128v64c0 105.792 86.208 192 192 192h128v-128h-128c-35.2 0-64-28.8-64-64v-64h192l-32-128h-160v-448h288c52.8 0 96 43.2 96 96v832c0 52.8-43.2 96-96 96z" />
<glyph unicode="&#xe94f;" glyph-name="line" d="M1024 520.352c0 229.088-229.664 415.488-512 415.488-282.272 0-512-186.4-512-415.488 0-205.408 182.144-377.44 428.192-409.952 16.672-3.584 39.328-11.008 45.088-25.248 5.152-12.928 3.36-33.184 1.664-46.304l-7.296-43.808c-2.272-12.928-10.336-50.592 44.32-27.616 54.656 23.040 294.88 173.6 402.272 297.248 74.208 81.376 109.728 163.968 109.728 255.648zM213.856 631.072c5.504 0 9.984-4.48 9.984-9.984v-177.184h97.568c5.504 0 9.952-4.448 9.952-9.952v-35.936c0-5.504-4.448-9.984-9.952-9.984h-143.488c-2.688 0-5.088 1.056-6.88 2.784l-0.288 0.288c-1.696 1.792-2.784 4.224-2.784 6.88v223.104c0 5.504 4.448 9.984 9.952 9.984h35.936zM853.504 631.072c5.504 0 9.952-4.48 9.952-9.984v-35.936c0-5.504-4.448-9.984-9.952-9.984h-97.568v-37.664h97.568c5.504 0 9.952-4.48 9.952-9.984v-35.936c0-5.504-4.448-9.984-9.952-9.984h-97.568v-37.728h97.568c5.504 0 9.952-4.48 9.952-9.952v-35.936c0-5.504-4.448-9.984-9.952-9.984h-143.488c-2.688 0-5.12 1.056-6.912 2.784l-0.128 0.16-0.128 0.128c-1.696 1.792-2.816 4.224-2.816 6.88v223.104c0 2.656 1.056 5.088 2.784 6.88l0.288 0.288c1.792 1.696 4.224 2.816 6.912 2.816h143.488zM407.968 631.040c5.504 0 9.984-4.448 9.984-9.952v-223.104c0-5.472-4.48-9.952-9.984-9.952h-35.936c-5.504 0-9.984 4.48-9.984 9.952v223.104c0 5.504 4.48 9.952 9.984 9.952h35.936zM498.72 631.040h0.352l0.512-0.032 0.544-0.032 0.416-0.032 0.544-0.128 0.352-0.128 0.608-0.16 0.352-0.128 0.544-0.256 0.288-0.128 0.544-0.288 0.288-0.16 0.512-0.384 0.256-0.16 0.544-0.48 0.864-0.864 0.768-0.992 102.24-138.080v132.512c0 5.504 4.48 9.952 9.984 9.952h35.872c5.536 0 9.984-4.448 9.984-9.952v-223.104c0-5.472-4.448-9.952-9.984-9.952h-35.872l-2.56 0.352-0.16 0.032-0.64 0.224-0.288 0.128-0.512 0.16-0.48 0.256-0.288 0.128-0.608 0.384-0.096 0.096-2.56 2.464-102.368 138.24v-132.512c0-5.472-4.448-9.952-9.984-9.952h-35.872c-5.504 0-9.984 4.48-9.984 9.952v223.104c0 5.504 4.48 9.952 9.984 9.952h35.872z" />
<glyph unicode="&#xe950;" glyph-name="line11" d="M810.656-64h-597.344c-117.792 0-213.344 95.52-213.344 213.344v597.344c0 117.792 95.52 213.344 213.344 213.344h597.344c117.856 0 213.344-95.52 213.344-213.344v-597.344c0-117.792-95.488-213.344-213.344-213.344zM853.344 469.664c0 152.736-153.12 276.992-341.344 276.992s-341.344-124.256-341.344-276.992c0-136.928 121.44-251.616 285.472-273.28 11.104-2.4 26.24-7.328 30.048-16.864 3.456-8.608 2.272-22.144 1.12-30.848l-4.864-29.216c-1.504-8.608-6.88-33.76 29.568-18.4s196.576 115.744 268.192 198.176h-0.032c49.504 54.24 73.184 109.28 73.184 170.4zM384.928 381.472h-95.648l-4.608 1.824v0.032l-0.16 0.16-1.888 4.576v148.736c0 3.68 2.976 6.656 6.656 6.656h23.968c3.616 0 6.624-2.976 6.624-6.656v-118.112h65.056c3.68 0 6.624-2.976 6.624-6.656v-23.936c0-3.68-2.944-6.656-6.624-6.656zM739.68 381.472h-95.648l-4.608 1.824-0.16 0.224-1.888 4.576v148.736l1.888 4.576 0.16 0.224 4.608 1.888h95.648c3.68 0 6.624-2.976 6.624-6.656v-23.936c0-3.68-2.944-6.656-6.624-6.656h-65.056v-25.12h65.056c3.68 0 6.624-2.976 6.624-6.656v-23.936c0-3.68-2.944-6.656-6.624-6.656h-65.056v-25.12h65.056c3.68 0 6.624-2.976 6.624-6.656v-23.936c0-3.68-2.944-6.656-6.624-6.656zM442.656 381.472h-23.968c-3.68 0-6.656 2.944-6.656 6.624v148.736c0 3.68 2.976 6.656 6.656 6.656h23.968c3.68 0 6.624-2.976 6.624-6.656v-148.736c0-3.616-2.944-6.624-6.624-6.624zM503.168 381.472h-23.936c-3.68 0-6.656 2.944-6.656 6.624v148.736c0 3.68 2.976 6.656 6.656 6.656h23.936l0.544-0.032 0.64-0.096 1.024-0.256 0.224-0.096 0.608-0.256 0.544-0.352 0.352-0.224 0.512-0.416 0.128-0.128 0.416-0.48 0.544-0.64 68.128-92.064v88.352c0 3.68 2.976 6.656 6.656 6.656h23.936c3.68 0 6.656-2.976 6.656-6.656v-148.736c0-3.616-2.976-6.624-6.656-6.624h-23.936l-1.696 0.224-0.768 0.256-0.288 0.128-0.512 0.256-0.416 0.256-0.032 0.032-1.696 1.664-68.224 92.16v-88.352c0-3.616-2.976-6.624-6.656-6.624z" />
<glyph unicode="&#xe951;" glyph-name="youtube" d="M836.896 824.16c-153.76 10.496-496.256 10.464-649.824 0-166.272-11.36-185.856-111.776-187.104-376.16 1.248-263.904 20.64-364.768 187.104-376.16 153.6-10.464 496.032-10.496 649.824 0 166.272 11.36 185.856 111.776 187.104 376.16-1.248 263.904-20.64 364.768-187.104 376.16zM384 277.344v341.344l341.344-170.368-341.344-170.976z" />
<glyph unicode="&#xe952;" glyph-name="youtube2" horiz-adv-x="2560" d="M344 790.592c0.224 0.864 0.352 1.472 0.384 1.792l1.056 7.552-47.36 0.256c-42.784 0.256-55.872 0-57.056-1.088-0.576-0.512-15.328-56.64-41.664-158.272-12.544-48.48-23.136-87.2-23.488-86.048s-15.392 56.512-33.408 122.976c-18.016 66.496-33.088 121.248-33.536 121.696-0.608 0.608-57.984 0.896-104.416 0.512-6.72-0.064-10.464 13.12 60.032-211.136 9.76-31.040 24.384-75.008 32.48-97.664 9.344-26.144 16-46.336 20.544-63.168 8.032-32.064 8.32-52.16 6.56-75.616-2.016-27.104-2.336-218.432-0.352-221.632 1.504-2.464 91.232-3.584 99.712-1.28 1.344 0.384 2.272 1.696 2.88 8.928 2.112 6.208 2.272 30.976 2.272 133.76v131.296l5.728 18.112c3.744 11.84 13.216 43.008 20.992 69.216s17.216 57.632 20.928 69.76c33.824 110.304 66.144 218.816 67.008 225.024l0.704 5.056zM846.112 631.36l-0.032-6.848h-1.056l-0.608-188.992-0.576-183.232-14.656-14.944c-16.416-16.704-29.6-23.104-41.504-20.128-12.96 3.264-12.64-1.792-13.728 214.784l-0.992 199.36h-94.304v-6.848h-1.088v-216.288c0-231.744 0-231.584 11.744-254.88 9.376-18.528 23.008-27.552 46.4-30.656v0c30.784-4.096 64 9.856 94.784 39.808l13.376 13.024v-22.432c0-19.392 0.544-22.592 4.064-23.584 5.76-1.6 77.184-1.696 84.896-0.128l6.4 1.312v6.624l1.088 0.224v495.104l-94.208-1.248zM606.88 533.664c-8.928 38.336-25.664 64.128-53.248 81.952-43.296 28-92.704 30.944-138.592 8.288-33.44-16.512-54.944-43.904-66.080-84.096-1.312-4.8-2.304-8.8-3.040-14.816-2.816-14.176-3.168-35.36-3.904-133.952-1.12-151.936 0.608-170.016 19.648-204.512 18.656-33.856 57.408-58.656 99.584-63.776 12.704-1.536 38.432 0.864 53.216 4.96 33.632 9.312 65.856 35.904 80.128 66.080 6.144 13.024 9.888 22.112 12.128 38.656 4.16 22.624 4.48 59.168 4.48 152.384 0 118.88-0.384 131.872-4.352 148.832zM499.328 224c-7.904-6.016-21.728-8.64-32.992-6.24-8.672 1.856-20.352 15.424-23.936 27.808-4.48 15.424-4.832 229.984-0.96 272.064 6.368 21.056 24.192 32.064 43.648 26.816 15.168-4.096 22.912-13.568 27.328-33.472 3.296-14.752 3.68-33.12 2.976-141.248-0.448-71.712-0.704-106.752-3.072-125.568-2.368-11.872-6.304-15.040-13.024-20.16zM2300.384 425.856h45.568l-0.736 41.28c-0.704 37.856-1.248 42.208-6.336 52.48-7.968 16.224-19.744 23.392-38.432 23.392-22.432 0-36.672-10.848-43.392-33.152-2.848-9.472-5.856-74.688-3.712-80.32 1.216-3.136 7.712-3.712 47.008-3.712zM1995.808 519.776c-6.080 12.256-17.376 18.272-30.528 17.792-10.208-0.352-21.568-4.672-32.48-13.024l-8.128-6.176v-296.608l8.128-6.176c18.432-14.048 38.688-17.024 52.608-7.712 5.504 3.68 9.12 8.768 11.904 16.864 3.648 10.528 3.968 24 3.488 148.768-0.48 130.048-0.768 137.696-5.024 146.24zM2560.864 653.376c-9.088 108.832-16.288 144.16-38.752 189.536-29.728 60.096-72.704 91.776-133.888 98.752-47.296 5.376-225.312 12.96-390.048 16.64-285.184 6.336-754.048-5.856-813.952-21.184-27.68-7.072-48.416-19.104-70.016-40.608-37.856-37.664-60.384-91.68-69.44-166.4-20.704-170.592-21.12-376.736-1.184-553.504 8.576-76.032 26.24-125.44 59.424-166.144 20.704-25.408 56.352-47.008 88.256-53.44 22.4-4.512 134.432-10.784 297.6-16.672 24.32-0.864 88.672-2.368 143.040-3.36 113.312-2.016 321.632-0.832 440.704 2.528 80.128 2.24 226.208 8.16 253.504 10.272 7.68 0.608 25.472 1.728 39.552 2.528 47.264 2.656 77.344 12.576 105.6 34.752 36.544 28.704 64.864 81.792 76.8 144.032 11.328 58.88 18.88 163.776 20.416 282.848 1.28 99.488-0.416 153.184-7.616 239.424zM1425.28 692.8l-52.992-0.64-2.336-565.152-45.92-0.576c-35.52-0.48-46.304 0.032-47.168 2.336-0.608 1.632-1.344 129.024-1.664 283.168l-0.576 280.256-103.488 1.312v88.32l305.824-1.248 1.312-87.072-52.992-0.64zM1750.208 368.896v-243.040h-83.712v25.568c0 19.232-0.736 25.568-2.976 25.568-1.632 0-9.216-6.336-16.864-14.112-16.544-16.832-36.16-30.368-52.896-36.64-34.656-12.96-67.584-5.408-81.632 18.752-12.832 22.112-13.088 27.040-13.088 256.32v210.56h83.648l0.64-198.272c0.608-194.816 0.704-198.4 5.376-206.336 6.176-10.528 15.616-13.344 30.592-9.216 8.832 2.432 14.848 6.72 29.152 20.928l18.016 17.952v374.944h83.712v-243.040zM2076.768 160.576c-7.36-16.416-23.808-32.512-37.28-36.48-35.168-10.368-63.36-1.92-95.936 28.704-10.112 9.504-19.52 17.216-20.928 17.216-1.696 0-2.624-7.456-2.624-22.080v-22.080h-83.712v655.84h83.712v-106.976c0-58.848 0.8-106.976 1.728-106.976s9.792 7.808 19.616 17.312c22.624 21.856 41.536 31.392 65.568 33.216 42.816 3.232 68.32-18.784 80.032-69.12 3.648-15.712 4-33.632 4-179.072 0-177.184-0.032-177.92-14.176-209.472zM2430.976 257.824c-0.736-18.24-2.944-39.136-4.928-46.528-11.648-43.168-42.624-73.728-87.424-86.272-60.32-16.864-126.72 10.784-153.216 63.808-14.88 29.76-15.392 35.712-15.392 181.184 0 118.624 0.416 133.184 4.224 149.344 10.752 45.792 37.376 75.424 82.496 91.872 13.056 4.768 26.72 7.2 40.352 7.488 48.672 0.992 96.992-25.184 117.216-67.808 13.664-28.768 15.36-41.056 16.704-122.112l1.248-72.672-178.496-1.248-0.64-48.832c-0.928-68.896 3.712-90.080 22.304-102.624 15.648-10.528 39.68-9.76 52.768 1.76 12.256 10.784 15.712 22.336 16.928 56.096l1.088 29.664h86.208l-1.376-33.152z" />
<glyph unicode="&#xe953;" glyph-name="caret-left" horiz-adv-x="402" d="M365.714 704v-512c0-20.005-16.567-36.571-36.571-36.571-9.728 0-18.871 3.986-25.71 10.862l-256 256c-6.839 6.839-10.862 16.018-10.862 25.71s3.986 18.871 10.862 25.71l256 256c6.839 6.839 16.018 10.862 25.71 10.862 20.005 0 36.571-16.567 36.571-36.571z" />
<glyph unicode="&#xe954;" glyph-name="caret-down" horiz-adv-x="585" d="M585.143 557.714c0-9.728-3.986-18.871-10.862-25.71l-256-256c-6.839-6.839-16.018-10.862-25.71-10.862s-18.871 3.986-25.71 10.862l-256 256c-6.839 6.839-10.862 16.018-10.862 25.71 0 20.005 16.567 36.571 36.571 36.571h512c20.005 0 36.571-16.567 36.571-36.571z" />
<glyph unicode="&#xe955;" glyph-name="caret-right" horiz-adv-x="329" d="M329.143 448c0-9.728-3.986-18.871-10.862-25.71l-256-256c-6.839-6.839-16.018-10.862-25.71-10.862-20.005 0-36.571 16.567-36.571 36.571v512c0 20.005 16.567 36.571 36.571 36.571 9.728 0 18.871-3.986 25.71-10.862l256-256c6.839-6.839 10.862-16.018 10.862-25.71z" />
<glyph unicode="&#xe956;" glyph-name="caret-up" horiz-adv-x="585" d="M585.143 265.143c0-20.005-16.567-36.571-36.571-36.571h-512c-20.005 0-36.571 16.567-36.571 36.571 0 9.728 3.986 18.871 10.862 25.71l256 256c6.839 6.839 16.018 10.862 25.71 10.862s18.871-3.986 25.71-10.862l256-256c6.839-6.839 10.862-16.018 10.862-25.71z" />
<glyph unicode="&#xea0e;" glyph-name="close" d="M512 960c-282.77 0-512-229.23-512-512s229.23-512 512-512 512 229.23 512 512-229.23 512-512 512zM512 32c-229.75 0-416 186.25-416 416s186.25 416 416 416 416-186.25 416-416-186.25-416-416-416zM672 704l-160-160-160 160-96-96 160-160-160-160 96-96 160 160 160-160 96 96-160 160 160 160z" />
<glyph unicode="&#xea45;" glyph-name="circle-right1" d="M512 960c-282.77 0-512-229.23-512-512s229.23-512 512-512 512 229.23 512 512-229.23 512-512 512zM512 32c-229.75 0-416 186.25-416 416s186.25 416 416 416 416-186.25 416-416-186.25-416-416-416zM354.744 253.256l90.512-90.512 285.254 285.256-285.256 285.254-90.508-90.508 194.744-194.746z" />
<glyph unicode="&#xea46;" glyph-name="circle-up" d="M0 448c0-282.77 229.23-512 512-512s512 229.23 512 512-229.23 512-512 512-512-229.23-512-512zM928 448c0-229.75-186.25-416-416-416s-416 186.25-416 416 186.25 416 416 416 416-186.25 416-416zM706.744 290.744l90.512 90.512-285.256 285.254-285.254-285.256 90.508-90.508 194.746 194.744z" />
<glyph unicode="&#xea47;" glyph-name="circle-right" d="M512 960c-282.77 0-512-229.23-512-512s229.23-512 512-512 512 229.23 512 512-229.23 512-512 512zM512 32c-229.75 0-416 186.25-416 416s186.25 416 416 416 416-186.25 416-416-186.25-416-416-416zM354.744 253.256l90.512-90.512 285.254 285.256-285.256 285.254-90.508-90.508 194.744-194.746z" />
<glyph unicode="&#xea48;" glyph-name="circle-left" d="M512-64c282.77 0 512 229.23 512 512s-229.23 512-512 512-512-229.23-512-512 229.23-512 512-512zM512 864c229.75 0 416-186.25 416-416s-186.25-416-416-416-416 186.25-416 416 186.25 416 416 416zM669.256 642.744l-90.512 90.512-285.254-285.256 285.256-285.254 90.508 90.508-194.744 194.746z" />
<glyph unicode="&#xea49;" glyph-name="circle-down" d="M1024 448c0 282.77-229.23 512-512 512s-512-229.23-512-512 229.23-512 512-512 512 229.23 512 512zM96 448c0 229.75 186.25 416 416 416s416-186.25 416-416-186.25-416-416-416-416 186.25-416 416zM317.256 605.256l-90.512-90.512 285.256-285.254 285.254 285.256-90.508 90.508-194.746-194.744z" />
<glyph unicode="&#xf003;" glyph-name="search" horiz-adv-x="951" d="M658.286 484.571c0 141.143-114.857 256-256 256s-256-114.857-256-256 114.857-256 256-256 256 114.857 256 256zM950.857 9.143c0-40-33.143-73.143-73.143-73.143-19.429 0-38.286 8-51.429 21.714l-196 195.429c-66.857-46.286-146.857-70.857-228-70.857-222.286 0-402.286 180-402.286 402.286s180 402.286 402.286 402.286 402.286-180 402.286-402.286c0-81.143-24.571-161.143-70.857-228l196-196c13.143-13.143 21.143-32 21.143-51.429z" />
<glyph unicode="&#xf055;" glyph-name="chevron-left" horiz-adv-x="768" d="M669.143 788l-303.429-303.429 303.429-303.429c14.286-14.286 14.286-37.143 0-51.429l-94.857-94.857c-14.286-14.286-37.143-14.286-51.429 0l-424 424c-14.286 14.286-14.286 37.143 0 51.429l424 424c14.286 14.286 37.143 14.286 51.429 0l94.857-94.857c14.286-14.286 14.286-37.143 0-51.429z" />
<glyph unicode="&#xf056;" glyph-name="chevron-right" horiz-adv-x="695" d="M632.571 458.857l-424-424c-14.286-14.286-37.143-14.286-51.429 0l-94.857 94.857c-14.286 14.286-14.286 37.143 0 51.429l303.429 303.429-303.429 303.429c-14.286 14.286-14.286 37.143 0 51.429l94.857 94.857c14.286 14.286 37.143 14.286 51.429 0l424-424c14.286-14.286 14.286-37.143 0-51.429z" />
<glyph unicode="&#xf079;" glyph-name="chevron-up" d="M961.714 199.429l-94.857-94.286c-14.286-14.286-37.143-14.286-51.429 0l-303.429 303.429-303.429-303.429c-14.286-14.286-37.143-14.286-51.429 0l-94.857 94.286c-14.286 14.286-14.286 37.714 0 52l424 423.429c14.286 14.286 37.143 14.286 51.429 0l424-423.429c14.286-14.286 14.286-37.714 0-52z" />
<glyph unicode="&#xf07a;" glyph-name="chevron-down" d="M961.714 498.286l-424-423.429c-14.286-14.286-37.143-14.286-51.429 0l-424 423.429c-14.286 14.286-14.286 37.714 0 52l94.857 94.286c14.286 14.286 37.143 14.286 51.429 0l303.429-303.429 303.429 303.429c14.286 14.286 37.143 14.286 51.429 0l94.857-94.286c14.286-14.286 14.286-37.714 0-52z" />
<glyph unicode="&#xf09b;" glyph-name="twitter" horiz-adv-x="951" d="M925.714 726.857c-25.143-36.571-56.571-69.143-92.571-95.429 0.571-8 0.571-16 0.571-24 0-244-185.714-525.143-525.143-525.143-104.571 0-201.714 30.286-283.429 82.857 14.857-1.714 29.143-2.286 44.571-2.286 86.286 0 165.714 29.143 229.143 78.857-81.143 1.714-149.143 54.857-172.571 128 11.429-1.714 22.857-2.857 34.857-2.857 16.571 0 33.143 2.286 48.571 6.286-84.571 17.143-148 91.429-148 181.143v2.286c24.571-13.714 53.143-22.286 83.429-23.429-49.714 33.143-82.286 89.714-82.286 153.714 0 34.286 9.143 65.714 25.143 93.143 90.857-112 227.429-185.143 380.571-193.143-2.857 13.714-4.571 28-4.571 42.286 0 101.714 82.286 184.571 184.571 184.571 53.143 0 101.143-22.286 134.857-58.286 41.714 8 81.714 23.429 117.143 44.571-13.714-42.857-42.857-78.857-81.143-101.714 37.143 4 73.143 14.286 106.286 28.571z" />
<glyph unicode="&#xf09c;" glyph-name="facebook" horiz-adv-x="602" d="M548 953.143v-150.857h-89.714c-70.286 0-83.429-33.714-83.429-82.286v-108h167.429l-22.286-169.143h-145.143v-433.714h-174.857v433.714h-145.714v169.143h145.714v124.571c0 144.571 88.571 223.429 217.714 223.429 61.714 0 114.857-4.571 130.286-6.857z" />
<glyph unicode="&#xf108;" glyph-name="darrow-left" horiz-adv-x="603" d="M358.286 173.714c0-4.571-2.286-9.714-5.714-13.143l-28.571-28.571c-3.429-3.429-8.571-5.714-13.143-5.714s-9.714 2.286-13.143 5.714l-266.286 266.286c-3.429 3.429-5.714 8.571-5.714 13.143s2.286 9.714 5.714 13.143l266.286 266.286c3.429 3.429 8.571 5.714 13.143 5.714s9.714-2.286 13.143-5.714l28.571-28.571c3.429-3.429 5.714-8.571 5.714-13.143s-2.286-9.714-5.714-13.143l-224.571-224.571 224.571-224.571c3.429-3.429 5.714-8.571 5.714-13.143zM577.714 173.714c0-4.571-2.286-9.714-5.714-13.143l-28.571-28.571c-3.429-3.429-8.571-5.714-13.143-5.714s-9.714 2.286-13.143 5.714l-266.286 266.286c-3.429 3.429-5.714 8.571-5.714 13.143s2.286 9.714 5.714 13.143l266.286 266.286c3.429 3.429 8.571 5.714 13.143 5.714s9.714-2.286 13.143-5.714l28.571-28.571c3.429-3.429 5.714-8.571 5.714-13.143s-2.286-9.714-5.714-13.143l-224.571-224.571 224.571-224.571c3.429-3.429 5.714-8.571 5.714-13.143z" />
<glyph unicode="&#xf109;" glyph-name="darrow-right" horiz-adv-x="567" d="M340 411.429c0-4.571-2.286-9.714-5.714-13.143l-266.286-266.286c-3.429-3.429-8.571-5.714-13.143-5.714s-9.714 2.286-13.143 5.714l-28.571 28.571c-3.429 3.429-5.714 8.571-5.714 13.143s2.286 9.714 5.714 13.143l224.571 224.571-224.571 224.571c-3.429 3.429-5.714 8.571-5.714 13.143s2.286 9.714 5.714 13.143l28.571 28.571c3.429 3.429 8.571 5.714 13.143 5.714s9.714-2.286 13.143-5.714l266.286-266.286c3.429-3.429 5.714-8.571 5.714-13.143zM559.429 411.429c0-4.571-2.286-9.714-5.714-13.143l-266.286-266.286c-3.429-3.429-8.571-5.714-13.143-5.714s-9.714 2.286-13.143 5.714l-28.571 28.571c-3.429 3.429-5.714 8.571-5.714 13.143s2.286 9.714 5.714 13.143l224.571 224.571-224.571 224.571c-3.429 3.429-5.714 8.571-5.714 13.143s2.286 9.714 5.714 13.143l28.571 28.571c3.429 3.429 8.571 5.714 13.143 5.714s9.714-2.286 13.143-5.714l266.286-266.286c3.429-3.429 5.714-8.571 5.714-13.143z" />
<glyph unicode="&#xf10a;" glyph-name="darrow-top" horiz-adv-x="658" d="M614.286 210.286c0-4.571-2.286-9.714-5.714-13.143l-28.571-28.571c-3.429-3.429-8-5.714-13.143-5.714-4.571 0-9.714 2.286-13.143 5.714l-224.571 224.571-224.571-224.571c-3.429-3.429-8.571-5.714-13.143-5.714s-9.714 2.286-13.143 5.714l-28.571 28.571c-3.429 3.429-5.714 8.571-5.714 13.143s2.286 9.714 5.714 13.143l266.286 266.286c3.429 3.429 8.571 5.714 13.143 5.714s9.714-2.286 13.143-5.714l266.286-266.286c3.429-3.429 5.714-8.571 5.714-13.143zM614.286 429.714c0-4.571-2.286-9.714-5.714-13.143l-28.571-28.571c-3.429-3.429-8-5.714-13.143-5.714-4.571 0-9.714 2.286-13.143 5.714l-224.571 224.571-224.571-224.571c-3.429-3.429-8.571-5.714-13.143-5.714s-9.714 2.286-13.143 5.714l-28.571 28.571c-3.429 3.429-5.714 8.571-5.714 13.143s2.286 9.714 5.714 13.143l266.286 266.286c3.429 3.429 8.571 5.714 13.143 5.714s9.714-2.286 13.143-5.714l266.286-266.286c3.429-3.429 5.714-8.571 5.714-13.143z" />
<glyph unicode="&#xf10b;" glyph-name="darrow-bottom" horiz-adv-x="658" d="M614.286 466.286c0-4.571-2.286-9.714-5.714-13.143l-266.286-266.286c-3.429-3.429-8.571-5.714-13.143-5.714s-9.714 2.286-13.143 5.714l-266.286 266.286c-3.429 3.429-5.714 8.571-5.714 13.143s2.286 9.714 5.714 13.143l28.571 28.571c3.429 3.429 8 5.714 13.143 5.714 4.571 0 9.714-2.286 13.143-5.714l224.571-224.571 224.571 224.571c3.429 3.429 8.571 5.714 13.143 5.714s9.714-2.286 13.143-5.714l28.571-28.571c3.429-3.429 5.714-8.571 5.714-13.143zM614.286 685.714c0-4.571-2.286-9.714-5.714-13.143l-266.286-266.286c-3.429-3.429-8.571-5.714-13.143-5.714s-9.714 2.286-13.143 5.714l-266.286 266.286c-3.429 3.429-5.714 8.571-5.714 13.143s2.286 9.714 5.714 13.143l28.571 28.571c3.429 3.429 8 5.714 13.143 5.714 4.571 0 9.714-2.286 13.143-5.714l224.571-224.571 224.571 224.571c3.429 3.429 8.571 5.714 13.143 5.714s9.714-2.286 13.143-5.714l28.571-28.571c3.429-3.429 5.714-8.571 5.714-13.143z" />
<glyph unicode="&#xf10c;" glyph-name="arrow-left" horiz-adv-x="384" d="M358.286 649.143c0-4.571-2.286-9.714-5.714-13.143l-224.571-224.571 224.571-224.571c3.429-3.429 5.714-8.571 5.714-13.143s-2.286-9.714-5.714-13.143l-28.571-28.571c-3.429-3.429-8.571-5.714-13.143-5.714s-9.714 2.286-13.143 5.714l-266.286 266.286c-3.429 3.429-5.714 8.571-5.714 13.143s2.286 9.714 5.714 13.143l266.286 266.286c3.429 3.429 8.571 5.714 13.143 5.714s9.714-2.286 13.143-5.714l28.571-28.571c3.429-3.429 5.714-8 5.714-13.143z" />
<glyph unicode="&#xf10d;" glyph-name="arrow-right" horiz-adv-x="347" d="M340 411.429c0-4.571-2.286-9.714-5.714-13.143l-266.286-266.286c-3.429-3.429-8.571-5.714-13.143-5.714s-9.714 2.286-13.143 5.714l-28.571 28.571c-3.429 3.429-5.714 8-5.714 13.143 0 4.571 2.286 9.714 5.714 13.143l224.571 224.571-224.571 224.571c-3.429 3.429-5.714 8.571-5.714 13.143s2.286 9.714 5.714 13.143l28.571 28.571c3.429 3.429 8.571 5.714 13.143 5.714s9.714-2.286 13.143-5.714l266.286-266.286c3.429-3.429 5.714-8.571 5.714-13.143z" />
<glyph unicode="&#xf10e;" glyph-name="arrow-top" horiz-adv-x="658" d="M614.286 283.429c0-4.571-2.286-9.714-5.714-13.143l-28.571-28.571c-3.429-3.429-8-5.714-13.143-5.714-4.571 0-9.714 2.286-13.143 5.714l-224.571 224.571-224.571-224.571c-3.429-3.429-8.571-5.714-13.143-5.714s-9.714 2.286-13.143 5.714l-28.571 28.571c-3.429 3.429-5.714 8.571-5.714 13.143s2.286 9.714 5.714 13.143l266.286 266.286c3.429 3.429 8.571 5.714 13.143 5.714s9.714-2.286 13.143-5.714l266.286-266.286c3.429-3.429 5.714-8.571 5.714-13.143z" />
<glyph unicode="&#xf10f;" glyph-name="arrow-bottom" horiz-adv-x="658" d="M614.286 539.429c0-4.571-2.286-9.714-5.714-13.143l-266.286-266.286c-3.429-3.429-8.571-5.714-13.143-5.714s-9.714 2.286-13.143 5.714l-266.286 266.286c-3.429 3.429-5.714 8.571-5.714 13.143s2.286 9.714 5.714 13.143l28.571 28.571c3.429 3.429 8 5.714 13.143 5.714 4.571 0 9.714-2.286 13.143-5.714l224.571-224.571 224.571 224.571c3.429 3.429 8.571 5.714 13.143 5.714s9.714-2.286 13.143-5.714l28.571-28.571c3.429-3.429 5.714-8.571 5.714-13.143z" />
<glyph unicode="&#xf16e;" glyph-name="instagram" horiz-adv-x="878" d="M585.143 448c0 80.571-65.714 146.286-146.286 146.286s-146.286-65.714-146.286-146.286 65.714-146.286 146.286-146.286 146.286 65.714 146.286 146.286zM664 448c0-124.571-100.571-225.143-225.143-225.143s-225.143 100.571-225.143 225.143 100.571 225.143 225.143 225.143 225.143-100.571 225.143-225.143zM725.714 682.286c0-29.143-23.429-52.571-52.571-52.571s-52.571 23.429-52.571 52.571 23.429 52.571 52.571 52.571 52.571-23.429 52.571-52.571zM438.857 808c-64 0-201.143 5.143-258.857-17.714-20-8-34.857-17.714-50.286-33.143s-25.143-30.286-33.143-50.286c-22.857-57.714-17.714-194.857-17.714-258.857s-5.143-201.143 17.714-258.857c8-20 17.714-34.857 33.143-50.286s30.286-25.143 50.286-33.143c57.714-22.857 194.857-17.714 258.857-17.714s201.143-5.143 258.857 17.714c20 8 34.857 17.714 50.286 33.143s25.143 30.286 33.143 50.286c22.857 57.714 17.714 194.857 17.714 258.857s5.143 201.143-17.714 258.857c-8 20-17.714 34.857-33.143 50.286s-30.286 25.143-50.286 33.143c-57.714 22.857-194.857 17.714-258.857 17.714zM877.714 448c0-60.571 0.571-120.571-2.857-181.143-3.429-70.286-19.429-132.571-70.857-184s-113.714-67.429-184-70.857c-60.571-3.429-120.571-2.857-181.143-2.857s-120.571-0.571-181.143 2.857c-70.286 3.429-132.571 19.429-184 70.857s-67.429 113.714-70.857 184c-3.429 60.571-2.857 120.571-2.857 181.143s-0.571 120.571 2.857 181.143c3.429 70.286 19.429 132.571 70.857 184s113.714 67.429 184 70.857c60.571 3.429 120.571 2.857 181.143 2.857s120.571 0.571 181.143-2.857c70.286-3.429 132.571-19.429 184-70.857s67.429-113.714 70.857-184c3.429-60.571 2.857-120.571 2.857-181.143z" />
</font>
</defs>
</svg>
